<?xml version="1.0" standalone="no"?>
<!DOCTYPE svg PUBLIC "-//W3C//DTD SVG 1.1//EN" "http://www.w3.org/Graphics/SVG/1.1/DTD/svg11.dtd">
<svg xmlns="http://www.w3.org/2000/svg">
  <defs>
    <font id="Montserrat" horiz-adv-x="636">
      <font-face font-family="Montserrat" units-per-em="1000" panose-1="0 0 0 0 0 0 0 0 0 0" ascent="968" descent="-251" alphabetic="0" />
      <glyph unicode=" " glyph-name="space" horiz-adv-x="262" />
      <glyph unicode="!" glyph-name="exclam" horiz-adv-x="260" d="M102,210L88,700h84L157,210H102ZM130-5Q108-5 92.5,10.5T77,47q0,22 15.5,36.5T130,98q23,0 37.5-14.5T182,47q0-21-14.5-36.5T130-5Z" />
      <glyph unicode="&quot;" glyph-name="quotedbl" horiz-adv-x="373" d="M74,436L69,700h63l-5-264H74Zm171,0l-5,264h63l-5-264H245Z" />
      <glyph unicode="#" glyph-name="numbersign" horiz-adv-x="696" d="M148,0l86,700h55L202,0H148ZM29,190v55H634V190H29ZM408,0l86,700h54L462,0H408ZM61,455v55H666V455H61Z" />
      <glyph unicode="$" glyph-name="dollar" horiz-adv-x="615" d="M307-6Q229-6 157.5,19.5T47,85l29,57q37-36 99.5-60.5T307,57q66,0 107.5,16.5t61,44.5T495,180q0,41-23.5,66T410,285.5T326,311t-92,23.5T149.5,368t-62,55.5T64,514q0,52 27.5,95.5t84.5,70T322,706q59,0 117-16.5T539,644l-25-59q-45,30-95.5,44T321,643q-63,0-104-17t-60.5-45.5T137,516q0-41 23.5-66t62-39T307,386t91.5-24t84-33.5t62-54.5T568,185q0-51-28-94.5t-85.5-70T307-6ZM286-120V820h50V-120H286Z" />
      <glyph unicode="%" glyph-name="percent" horiz-adv-x="829" d="M146,0L624,700h59L205,0H146Zm54,325q-47,0-83,23.5T61.5,415T42,515T61.5,615T117,681.5T200,705t82.5-23.5t55.5-66T358,515q0-57-20-100t-55.5-66.5T200,325Zm0,45q49,0 78.5,38.5T308,515T278.5,621.5T200,660q-50,0-79-38.5T92,515t29-106.5T200,370ZM629-5q-46,0-82,23.5T491,85T471,185t20,100t56,66.5T629,375q48,0 83.5-23.5t55-66.5T787,185T767.5,85t-55-66.5T629-5Zm0,45q49,0 78.5,38.5T737,185T707.5,291.5T629,330t-78.5-38.5T521,185T550.5,78.5T629,40Z" />
      <glyph unicode="&amp;" glyph-name="ampersand" horiz-adv-x="669" d="M615-11L229,386q-35,37-55.5,64.5T145,503t-8,53q0,45 21.5,78.5t61.5,52T314,705q49,0 85.5-16.5t57-47.5T477,566q0-38-18.5-71T398,430.5T284,360q-63-35-99.5-64T133,239.5T118,179q0-38 21.5-66.5t60-44T288,53q70,0 125,29t92.5,88T560,318l57-18q-19-100-65-168T438,29T284-6Q216-6 163,16.5T79.5,79T49,172q0,45 20,82.5t64.5,74T252,405q63,35 98.5,60.5t50.5,49T416,565q0,39-26.5,63T314,652q-53,0-82-26.5T203,557q0-21 6.5-40t25-42T286,417L656,36L615-11Z" />
      <glyph unicode="&apos;" glyph-name="quotesingle" horiz-adv-x="202" d="M74,436L69,700h63l-5-264H74Z" />
      <glyph unicode="(" glyph-name="parenleft" horiz-adv-x="329" d="M220-194q-55,91-85.5,210.5T104,274t30.5,258.5T220,742h68q-59-103-86.5-218.5T174,274T201.5,24.5T288-194H220Z" />
      <glyph unicode=")" glyph-name="parenright" horiz-adv-x="329" d="M40-194Q100-91 127.5,24.5T155,274T127.5,523.5T40,742h68q57-89 87-209.5T225,274T195,16.5T108-194H40Z" />
      <glyph unicode="*" glyph-name="asterisk" horiz-adv-x="386" d="M170,380l1,153l10-5L46,449L22,491l139,78V553L22,631l24,42l135-79l-10-5l-1,153h46V589l-11,5l136,79l23-42L226,553v16l138-78l-23-42L205,528l11,5V380H170Z" />
      <glyph unicode="+" glyph-name="plus" horiz-adv-x="575" d="M256,138V562h63V138H256ZM70,320v59H505V320H70Z" />
      <glyph unicode="," glyph-name="comma" horiz-adv-x="212" d="M56-146L100,39l8-43Q85-4 69.5,11T54,50T69.5,89T107,104q23,0 37.5-16T159,50q0-8-1-16t-4-18T146-8L104-146H56Z" />
      <glyph unicode="-" glyph-name="hyphen" horiz-adv-x="382" d="M60,240v62H322V240H60Z" />
      <glyph unicode="." glyph-name="period" horiz-adv-x="212" d="M106-5Q84-5 68.5,11T53,50q0,24 15.5,39T106,104t37.5-15T159,50q0-23-15.5-39T106-5Z" />
      <glyph unicode="/" glyph-name="slash" horiz-adv-x="335" d="M-25-100L305,842h65L40-100H-25Z" />
      <glyph unicode="0" glyph-name="zero" horiz-adv-x="662" d="M331-6Q250-6 187,36.5t-99,122T52,350T88,541.5t99,122T331,706t144-42.5t99.5-122T611,350T574.5,158.5T475,36.5T331-6Zm0,66q62,0 108,33.5t72,98T537,350T511,508.5t-72,98T331,640q-60,0-107-33.5t-73-98T125,350t26-158.5t73-98T331,60Z" />
      <glyph unicode="1" glyph-name="one" horiz-adv-x="361" d="M174,0V670l32-34H9v64H246V0H174Z" />
      <glyph unicode="2" glyph-name="two" horiz-adv-x="568" d="M39,0V51L330,336q40,39 60,68.5T417,460t7,49q0,61-41.5,96T260,640q-62,0-109.5-19T69,562L18,606q41,48 105,74t143,26q71,0 123-22.5T469.5,618T498,517q0-34-9.5-67t-34-69.5T383,298L116,36L96,64H530V0H39Z" />
      <glyph unicode="3" glyph-name="three" horiz-adv-x="564" d="M261-6Q185-6 117.5,18.5T9,84l35,57q34-35 91.5-58T261,60q87,0 133.5,38T441,200T395.5,302T252,340H202v53L418,664l10-28H38v64H488V649L272,378l-35,23h27q126,0 188.5-56T515,201q0-59-28-106T402.5,21T261-6Z" />
      <glyph unicode="4" glyph-name="four" horiz-adv-x="661" d="M40,184v52L411,700h80L123,236L84,248H647V184H40ZM435,0V184l2,64V410h70V0H435Z" />
      <glyph unicode="5" glyph-name="five" horiz-adv-x="566" d="M273-6Q198-6 130,18.5T22,84l35,57q33-35 90.5-58T272,60q89,0 135.5,39.5T454,203q0,45-21.5,77.5T360,331T220,349H71l36,351H490V636H136l37,35L142,377l-37,36H236q106,0 170-26t92.5-72.5T527,206q0-59-28-107.5T415,22T273-6Z" />
      <glyph unicode="6" glyph-name="six" horiz-adv-x="609" d="M339-6Q246-6 182,35.5t-97,120T52,344q0,119 40.5,199.5T205,665t167,41q47,0 90-9t76-29l-29-58q-27,18-62,25.5T373,643q-113,0-180.5-72T125,356q0-22 2.5-54.5T139,237l-25,19q11,52 43,88.5T237,400t105,19q70,0 123-26t83-73t30-111q0-65-31-113.5t-85.5-75T339-6Zm-3,61q50,0 88.5,18.5t60.5,53T507,207q0,69-47.5,110T331,358q-54,0-94-20t-63-54.5T151,205q0-38 21-72.5t62.5-56T336,55Z" />
      <glyph unicode="7" glyph-name="seven" horiz-adv-x="589" d="M175,0L477,668l22-32H66l37,35V505H32V700H546V649L253,0H175Z" />
      <glyph unicode="8" glyph-name="eight" horiz-adv-x="638" d="M318-6Q234-6 173.5,18t-93,69.5T48,195q0,60 31.5,102.5t92,65.5T318,386q85,0 146-23t93.5-65.5T590,195q0-62-33-107.5T463,18T318-6Zm0,61q93,0 145.5,38T516,196T463.5,298.5T318,336T173,298.5T121,196T173,93T318,55Zm0,338q82,0 128,34t46,91q0,60-47.5,93.5T318,645T192,611.5T145,519q0-58 45.5-92T318,393Zm0-48q-78,0-132.5,21T102,426.5T73,521q0,58 30.5,99.5T189,684t129,22t129.5-22T534,620.5T565,521q0-55-29-94.5T451.5,366T318,345Z" />
      <glyph unicode="9" glyph-name="nine" horiz-adv-x="609" d="M237-6q-47,0-89.5,9T71,32l29,58q27-18 62.5-25.5T236,57q113,0 180.5,72T484,344q0,23-2.5,55T470,463l25-19q-10-52-42.5-88.5t-80-55.5T267,281q-69,0-122.5,26T61,380T31,491q0,66 31,114t85.5,74.5T270,706q93,0 157-41.5T524,545t33-189q0-118-40.5-199T404,35T237-6Zm41,348q54,0 94.5,20t63,55T458,495q0,39-21,73t-62,55.5T273,645q-50,0-88.5-18.5T124,574t-22-81q0-69 47.5-110T278,342Z" />
      <glyph unicode=":" glyph-name="colon" horiz-adv-x="212" d="M106,421q-22,0-37.5,16T53,476q0,24 15.5,39T106,530t37.5-15T159,476q0-23-15.5-39T106,421ZM106-5Q84-5 68.5,11T53,50q0,24 15.5,39T106,104t37.5-15T159,50q0-23-15.5-39T106-5Z" />
      <glyph unicode=";" glyph-name="semicolon" horiz-adv-x="212" d="M106,421q-22,0-37.5,16T53,476q0,24 15.5,39T106,530t37.5-15T159,476q0-23-15.5-39T106,421ZM56-146L100,39l8-43Q85-4 69.5,11T54,50T69.5,89T107,104q23,0 37.5-16T159,50q0-8-1-16t-4-18T146-8L104-146H56Z" />
      <glyph unicode="&lt;" glyph-name="less" horiz-adv-x="575" d="M505,143L70,317v66L505,557V495L96,334v32L505,205V143Z" />
      <glyph unicode="=" glyph-name="equal" horiz-adv-x="575" d="M70,436v59H505V436H70Zm0-231v59H505V205H70Z" />
      <glyph unicode="&gt;" glyph-name="greater" horiz-adv-x="575" d="M70,143v62L479,366V334L70,495v62L505,383V317L70,143Z" />
      <glyph unicode="?" glyph-name="question" horiz-adv-x="567" d="M235,210q0,42 13.5,72t34,53t44,43T371,418.5t34,45T418,521q0,54-42,88T257,643q-64,0-111-20.5T66,562L13,602q40,50 103,77t146,27q70,0 121.5-21t80-60T492,532q0-43-13.5-73.5t-34-54t-44-44T356,319t-34-47t-13-62H235ZM272-5q-21,0-36.5,15.5T220,47q0,22 15.5,36.5T272,98q23,0 38-14.5T325,47q0-21-15-36.5T272-5Z" />
      <glyph unicode="@" glyph-name="at" horiz-adv-x="1033" d="M515-200q-103,0-188,33.5t-146.5,94t-95,144T52,254q0,100 33.5,182.5t96,143T330,673t189,33q102,0 186.5-32T852,583.5T947.5,444T981,265q0-84-19.5-144.5T905,27.5T816-5q-51,0-82,31t-31,87v79l8,64L701,356V507h65V128q0-42 18-59t44-17q31,0 54,25t35.5,72.5T930,264q0,88-30,160T815,548T685,627.5T519,655T352,626T221.5,543.5T137,416.5T107,254T136.5,91T220-36.5t129-83T515-149q45,0 96.5,11T707-105l17-49q-45-23-102-34.5T515-200ZM503-5Q432-5 376,28.5t-88.5,92T255,254t32.5,133T376,478t127,33q69,0 122.5-31t84-88.5T740,254T709.5,116T626,26.5T503-5Zm9,58q54,0 97.5,25t68,70.5T702,254q0,61-24.5,105.5t-68,69T512,453q-56,0-99-24.5T345.5,359T321,254t24.5-105T413,78.5T512,53Z" />
      <glyph unicode="A" glyph-name="A" horiz-adv-x="717" d="M2,0L322,700h73L715,0H637L343,657h30L79,0H2ZM128,187l22,60H557l22-60H128Z" />
      <glyph unicode="B" glyph-name="B" horiz-adv-x="754" d="M114,0V700H416q117,0 181.5-47T662,520q0-57-26.5-96t-72-59T464,345l17,24q67,0 115.5-20.5t75.5-61T699,187q0-89-65.5-138T436,0H114Zm74,61H435q92,0 141,31.5T625,193q0,68-49,99.5T435,324H180v61H411q84,0 130.5,32T588,512q0,64-46.5,95.5T411,639H188V61Z" />
      <glyph unicode="C" glyph-name="C" horiz-adv-x="709" d="M418-6Q339-6 272,20.5T156,95T79.5,208T52,350T79.5,492t77,113T273,679.5T419,706q76,0 143-25.5T675,604l-47-47q-43,44-95,63.5T421,640q-63,0-117-21.5t-94-61t-62.5-92T125,350t22.5-115.5t62.5-92t94-61T421,60q60,0 112,20t95,64l47-47Q629,46 562,20T418-6Z" />
      <glyph unicode="D" glyph-name="D" horiz-adv-x="826" d="M114,0V700H399q112,0 196.5-44.5T727,532t47-182T727,168T595.5,44.5T399,0H114Zm74,64H395q93,0 161.5,36.5T663,201.5T701,350q0,85-38,149T556.5,599.5T395,636H188V64Z" />
      <glyph unicode="E" glyph-name="E" horiz-adv-x="669" d="M114,0V700H594V636H188V64H609V0H114Zm66,324v63H550V324H180Z" />
      <glyph unicode="F" glyph-name="F" horiz-adv-x="633" d="M114,0V700H594V636H188V0H114Zm66,297v64H550V297H180Z" />
      <glyph unicode="G" glyph-name="G" horiz-adv-x="773" d="M421-6Q341-6 273.5,20.5T156.5,95t-77,113T52,350T79.5,492T157,605t117.5,74.5T422,706t146.5-25T682,605l-46-47q-44,44-97,63T425,640q-65,0-119.5-21.5t-95-61t-63-92T125,350q0-62 22.5-115t63-92.5t95-61T424,60q60,0 113.5,18T636,139l42-56Q628,39 561,16.5T421-6ZM678,83l-71,9V350h71V83Z" />
      <glyph unicode="H" glyph-name="H" horiz-adv-x="813" d="M626,0V700h73V0H626ZM114,0V700h74V0H114Zm66,323v65H633V323H180Z" />
      <glyph unicode="I" glyph-name="I" horiz-adv-x="302" d="M114,0V700h74V0H114Z" />
      <glyph unicode="J" glyph-name="J" horiz-adv-x="501" d="M189-6Q130-6 78.5,20T-4,94l43,50q29-42 67-64t84-22q130,0 130,154V636H64v64H393V215q0-111-51.5-166T189-6Z" />
      <glyph unicode="K" glyph-name="K" horiz-adv-x="711" d="M178,174l-3,90L599,700h85L375,376l-42-45L178,174ZM114,0V700h74V0H114ZM617,0L315,348l50,54L705,0H617Z" />
      <glyph unicode="L" glyph-name="L" horiz-adv-x="589" d="M114,0V700h74V64H580V0H114Z" />
      <glyph unicode="M" glyph-name="M" horiz-adv-x="955" d="M114,0V700h61L495,154H463L780,700h61V0H770V589h17L495,89H460L166,589h19V0H114Z" />
      <glyph unicode="N" glyph-name="N" horiz-adv-x="813" d="M114,0V700h61L658,92H626V700h73V0H638L156,608h32V0H114Z" />
      <glyph unicode="O" glyph-name="O" horiz-adv-x="839" d="M420-6Q341-6 273.5,20.5t-117,75t-77,113T52,350T79.5,491.5t77,113t116.5,75T420,706q79,0 146-26.5T682.5,605t77-113T787,350T759.5,208t-77-113T566,20.5T420-6Zm0,66q63,0 116.5,21.5t93,61t61.5,92T713,350T691,465.5t-61.5,92t-93,61T420,640T303,618.5t-93.5-61t-62-92T125,350q0-62 22.5-115t62-92.5t93.5-61T420,60Z" />
      <glyph unicode="P" glyph-name="P" horiz-adv-x="718" d="M114,0V700H376q89,0 153-28.5t98.5-82T662,460q0-74-34.5-127.5T529,250T376,221H155l33,35V0H114Zm74,250l-33,36H374q105,0 159.5,45.5T588,460q0,84-54.5,130T374,636H155l33,35V250Z" />
      <glyph unicode="Q" glyph-name="Q" horiz-adv-x="839" d="M420-6Q341-6 273.5,20.5t-117,75t-77,113T52,350T79.5,491.5t77,113t116.5,75T420,706q79,0 146-26.5T682.5,605t77-113T787,350T759.5,208t-77-113T566,20.5T420-6ZM649-139q-32,0-62,8t-60.5,25.5T464-60T394,8l81,20q31-37 60.5-61t58-35.5T650-80q78,0 133,64l36-43q-66-80-170-80ZM420,60q63,0 116.5,21.5t93,61.5T691,235.5T713,350q0,63-22,115.5t-61.5,92t-93,61T420,640T303,618.5t-93.5-61t-62-92T125,350q0-62 22.5-114.5t62-92.5T303,81.5T420,60Z" />
      <glyph unicode="R" glyph-name="R" horiz-adv-x="723" d="M114,0V700H376q133,0 209.5-63.5T662,460q0-74-34.5-127.5t-98.5-82T376,222H155l33,34V0H114ZM592,0L412,254h80L673,0H592ZM188,250l-33,35H374q105,0 159.5,46T588,460q0,84-54.5,130T374,636H155l33,35V250Z" />
      <glyph unicode="S" glyph-name="S" horiz-adv-x="615" d="M307-6Q229-6 157.5,19.5T47,85l29,57q37-36 99.5-60.5T307,57q66,0 107.5,16.5t61,44.5T495,180q0,41-23.5,66T410,285.5T326,311t-92,23.5T149.5,368t-62,55.5T64,514q0,52 27.5,95.5t84.5,70T322,706q59,0 117-16.5T539,644l-25-59q-45,30-95.5,44T321,643q-63,0-104-17t-60.5-45.5T137,516q0-41 23.5-66t62-39T307,386t91.5-24t84-33.5t62-54.5T568,185q0-51-28-94.5t-85.5-70T307-6Z" />
      <glyph unicode="T" glyph-name="T" horiz-adv-x="574" d="M250,0V636H4v64H570V636H324V0H250Z" />
      <glyph unicode="U" glyph-name="U" horiz-adv-x="792" d="M396-6Q262-6 185,71T108,299V700h74V302q0-124 56-183T396,60q103,0 159,59t56,183V700h72V299q0-151-76.5-228T396-6Z" />
      <glyph unicode="V" glyph-name="V" horiz-adv-x="698" d="M313,0L3,700H83L373,41H329L621,700h75L386,0H313Z" />
      <glyph unicode="W" glyph-name="W" horiz-adv-x="1111" d="M273,0L37,700h76L334,41H296L524,700h68L817,41H781l223,659h71L839,0H761L546,625h20L350,0H273Z" />
      <glyph unicode="X" glyph-name="X" horiz-adv-x="656" d="M17,0L304,388V331L34,700h85L346,392l-33-1L540,700h80L353,336v52L639,0H553L311,329h31L102,0H17Z" />
      <glyph unicode="Y" glyph-name="Y" horiz-adv-x="635" d="M281,0V260l17-46L1,700H80L341,273H299L560,700h74L337,214l17,46V0H281Z" />
      <glyph unicode="Z" glyph-name="Z" horiz-adv-x="651" d="M45,0V51L531,664l8-28H52v64H607V649L122,36l-9,28H619V0H45Z" />
      <glyph unicode="[" glyph-name="bracketleft" horiz-adv-x="318" d="M114-194V742H297V683H185V-135H297v-59H114Z" />
      <glyph unicode="\" glyph-name="backslash" horiz-adv-x="335" d="M295-100L-35,842H30L360-100H295Z" />
      <glyph unicode="]" glyph-name="bracketright" horiz-adv-x="318" d="M21-194v59H133V683H21v59H204V-194H21Z" />
      <glyph unicode="^" glyph-name="asciicircum" horiz-adv-x="576" d="M83,143L258,557h61L493,143H434L273,532h30L142,143H83Z" />
      <glyph unicode="_" glyph-name="underscore" horiz-adv-x="500" d="M0-48V0H500V-48H0Z" />
      <glyph unicode="`" glyph-name="grave" horiz-adv-x="600" d="M295,607L133,731h95L365,607H295Z" />
      <glyph unicode="a" glyph-name="a" horiz-adv-x="590" d="M428,0V116l-3,19V329q0,67-37.5,103T276,468q-51,0-97-17t-78-45L69,459q40,34 96,52.5T283,530q102,0 157.5-50.5T496,326V0H428ZM247-5Q188-5 144.5,14.5T78,68.5T55,148q0,41 19.5,74.5t64,54T258,297H439V244H260q-76,0-105.5-27T125,150q0-45 35-72t98-27q60,0 103.5,27.5T425,158l16-49q-20-52-69.5-83T247-5Z" />
      <glyph unicode="b" glyph-name="b" horiz-adv-x="678" d="M370-5Q301-5 246,26.5T159,118T127,263q0,86 32.5,145.5T247,499t123,31q75,0 134.5-33.5T598,403t34-140q0-79-34-139.5T504.5,29T370-5ZM99,0V742h71V370L160,264l7-106V0H99ZM365,58q56,0 100,25.5t70,72T561,263q0,62-26,108t-70,71.5T365,468T264.5,442.5t-70-71.5T169,263q0-61 25.5-107.5t70-72T365,58Z" />
      <glyph unicode="c" glyph-name="c" horiz-adv-x="563" d="M317-5Q239-5 177.5,29.5T81,124.5T46,263q0,79 35,139t96.5,94T317,530q67,0 121-26t85-78l-53-36q-27,40-67,59t-87,19q-56,0-101-25.5T144,371T118,263t26-108t71-71.5T316,58q47,0 87,19t67,58l53-36q-31-51-85-77.5T317-5Z" />
      <glyph unicode="d" glyph-name="d" horiz-adv-x="678" d="M308-5Q233-5 173.5,29T80,123.5T46,263q0,80 34,140t93.5,93.5T308,530q69,0 123.5-31t87-90.5T551,263q0-85-32-145T432.5,26.5T308-5Zm5,63q56,0 100.5,25.5t70,72T509,263q0,62-25.5,108t-70,71.5T313,468q-55,0-99-25.5T144,371T118,263q0-61 26-107.5t70-72T313,58ZM511,0V158l7,106L508,370V742h71V0H511Z" />
      <glyph unicode="e" glyph-name="e" horiz-adv-x="604" d="M322-5Q240-5 178,29.5t-97,95T46,263T79.5,401t92,94.5T303,530q74,0 131.5-33.5t90.5-94T558,263q0-5-0.5-10.5T557,241H100v53H519l-28-21q0,57-24.5,101.5T400,444t-97,25q-54,0-97-25t-67-70T115,271V260q0-60 26.5-105.5t74-71T324,58q48,0 89.5,17T485,127l40-46q-35-42-87.5-64T322-5Z" />
      <glyph unicode="f" glyph-name="f" horiz-adv-x="339" d="M111,0V591q0,70 41,113t118,43q30,0 58-8t47-25l-24-53q-15,13-35,19.5T273,687q-45,0-69-25t-24-74V508l2-33V0H111ZM17,466v59H342V466H17Z" />
      <glyph unicode="g" glyph-name="g" horiz-adv-x="685" d="M323-199q-72,0-138,21T78-118l36,54q37-33 91.5-52.5T321-136q100,0 147,46.5T515,55V186l10,90l-7,90V525h68V64q0-136-66.5-199.5T323-199ZM310,20q-75,0-135,32.5T80.5,143T46,276T80.5,408.5T175,498t135,32q70,0 126-29t89-86t33-139T525,137T436,50T310,20Zm7,63q58,0 103,24.5t71,68T517,276T491,376t-71,67.5T317,468q-57,0-102.5-24.5t-71-67.5T118,276t25.5-100.5t71-68T317,83Z" />
      <glyph unicode="h" glyph-name="h" horiz-adv-x="676" d="M99,0V742h71V381l-14,27q25,57 80,89.5T367,530q64,0 112.5-24.5t76-74.5T583,305V0H512V298q0,83-41.5,125.5T354,466q-56,0-97.5-22.5t-64-65T170,276V0H99Z" />
      <glyph unicode="i" glyph-name="i" horiz-adv-x="269" d="M99,0V525h71V0H99Zm36,641q-22,0-37,15T83,692t15,35.5T135,742t37-14t15-35q0-22-14.5-37T135,641Z" />
      <glyph unicode="j" glyph-name="j" horiz-adv-x="274" d="M21-199q-32,0-61.5,8.5T-90-165l25,54q32-27 82-27q42,0 64.5,25T104-39V525h71V-39q0-73-39.5-116.5T21-199ZM140,641q-22,0-37,15T88,692t15,35.5T140,742t37-14t15-35q0-22-14.5-37T140,641Z" />
      <glyph unicode="k" glyph-name="k" horiz-adv-x="598" d="M155,136l2,91L484,525h87L340,304l-40-34L155,136ZM99,0V742h71V0H99ZM506,0L287,273l46,55L593,0H506Z" />
      <glyph unicode="l" glyph-name="l" horiz-adv-x="269" d="M99,0V742h71V0H99Z" />
      <glyph unicode="m" glyph-name="m" horiz-adv-x="1061" d="M99,0V525h68V383l-11,25q24,57 77.5,89.5T360,530q77,0 131-38.5T561,376l-28,11q23,64 81.5,103.5T755,530q64,0 111.5-24.5t74-74.5T967,305V0H896V298q0,83-39.5,125.5T745,466q-54,0-93.5-22.5t-61-65T569,276V0H498V298q0,83-40,125.5T346,466q-53,0-93-22.5t-61.5-65T170,276V0H99Z" />
      <glyph unicode="n" glyph-name="n" horiz-adv-x="676" d="M99,0V525h68V381l-11,27q25,57 80,89.5T367,530q64,0 112.5-24.5t76-74.5T583,305V0H512V298q0,83-41.5,125.5T354,466q-56,0-97.5-22.5t-64-65T170,276V0H99Z" />
      <glyph unicode="o" glyph-name="o" horiz-adv-x="627" d="M313-5Q237-5 176.5,29.5T81,124.5T46,263q0,79 35,139t95,94t137,34q78,0 138.5-34t95-94T581,263q0-78-34.5-138.5T451,29.5T313-5Zm0,63q57,0 101,25.5t69.5,72T509,263q0,62-25.5,108T414,442.5T314,468T214,442.5T144,371T118,263q0-61 26-107.5t70-72T313,58Z" />
      <glyph unicode="p" glyph-name="p" horiz-adv-x="678" d="M370-5Q302-5 247,26.5t-87.5,91T127,263t32,145.5T246,499t124,31q75,0 134.5-33.5t93.5-94T632,263q0-80-34-140T504.5,29T370-5ZM99-194V525h68V367l-7-105l10-106V-194H99ZM365,58q56,0 100,25.5t70,72T561,263T535,370t-70,72T365,468T264.5,442t-70-72T169,263t25.5-107.5t70-72T365,58Z" />
      <glyph unicode="q" glyph-name="q" horiz-adv-x="678" d="M308-5Q233-5 173.5,29T80,123T46,263q0,79 34,139.5t93.5,94T308,530q70,0 124.5-31T519,408.5T551,263T518.5,117.5t-87-91T308-5Zm5,63q56,0 100.5,25.5t70,72T509,263T483.5,370t-70,72T313,468q-55,0-99-26t-70-72T118,263t26-107.5t70-72T313,58ZM508-194V156l10,106l-7,105V525h68V-194H508Z" />
      <glyph unicode="r" glyph-name="r" horiz-adv-x="401" d="M99,0V525h68V382l-7,25q22,60 74,91.5T363,530V461q-4,0-8,0.5t-8,0.5q-83,0-130-50.5T170,268V0H99Z" />
      <glyph unicode="s" glyph-name="s" horiz-adv-x="488" d="M240-5Q175-5 117,13.5T26,60l32,56q32-24 82-41.5T245,57q75,0 108,23.5T386,143q0,29-18.5,45.5t-48.5,25T252,228t-73.5,14T112,265.5T63.5,308T45,380q0,43 24,77t70.5,53.5T253,530q51,0 102-13.5T439,481l-31-57q-35,24-75,34.5T253,469q-71,0-104.5-24.5T115,382q0-30 18.5-47t49-26.5t67-15.5t73-14.5t67-23t49-41T457,145q0-46-25.5-79.5t-74-52T240-5Z" />
      <glyph unicode="t" glyph-name="t" horiz-adv-x="406" d="M265-5Q191-5 151,35T111,148V641h71V152q0-46 23.5-71T273,56q47,0 78,27l25-51Q355,13 325.5,4T265-5ZM17,466v59H342V466H17Z" />
      <glyph unicode="u" glyph-name="u" horiz-adv-x="672" d="M316-5Q249-5 199,20T121.5,95T94,220V525h71V228q0-84 41.5-126.5T323,59q55,0 95.5,22.5t62,65.5T502,250V525h71V0H505V144l11-26q-25-58-77.5-90.5T316-5Z" />
      <glyph unicode="v" glyph-name="v" horiz-adv-x="542" d="M234,0L1,525H75L289,38H254L471,525h70L307,0H234Z" />
      <glyph unicode="w" glyph-name="w" horiz-adv-x="879" d="M206,0L8,525H76L256,38H225L410,525h61L654,38H623L806,525h65L672,0H605L429,458h21L273,0H206Z" />
      <glyph unicode="x" glyph-name="x" horiz-adv-x="534" d="M19,0L241,288l-1-35L29,525h80L282,300l-30,1L425,525h78L290,250l1,38L515,0H434L251,240l28-4L99,0H19Z" />
      <glyph unicode="y" glyph-name="y" horiz-adv-x="542" d="M103-199q-37,0-70.5,12T-25-151L8-98q20-19 43.5-29.5T104-138q35,0 60.5,19.5T213-50l34,77l8,11L471,525h70L278-63q-22-51-48.5-81T172-186.5T103-199ZM243-15L1,525H75L289,43L243-15Z" />
      <glyph unicode="z" glyph-name="z" horiz-adv-x="511" d="M42,0V47L392,490l15-24H48v59H463V479L114,35L96,59H470V0H42Z" />
      <glyph unicode="{" glyph-name="braceleft" horiz-adv-x="334" d="M275-194q-67,0-101.5,33.5T139-61V193q0,27-11.5,39T94,244H60v60H94q22,0 33.5,12T139,355V609q0,67 34.5,100T275,742h38V683H286q-38,0-57-21t-19-59V356q0-30-7-47t-21.5-26T144,269v10q23-4 37.5-13.5T203,239t7-47V-55q0-38 19-59t57-21h27v-59H275Z" />
      <glyph unicode="|" glyph-name="bar" horiz-adv-x="294" d="M114-194V742h66V-194H114Z" />
      <glyph unicode="}" glyph-name="braceright" horiz-adv-x="334" d="M21-194v59H48q39,0 57.5,21T124-55V192q0,30 7,47t22,26.5T190,279V269q-22,5-37,14t-22,26t-7,47V603q0,38-18.5,59T48,683H21v59H58q68,0 102.5-33T195,609V355q0-27 12-39t33-12h34V244H240q-21,0-33-12t-12-39V-61q0-66-34.5-99.5T58-194H21Z" />
      <glyph unicode="~" glyph-name="asciitilde" horiz-adv-x="575" d="M389,272q-36,0-62.5,15.5T278,323t-43,35t-47,15q-35,0-55.5-25.5T110,278H62q2,75 36.5,113T186,429q36,0 62.5-15.5t48-35.5t43-35.5T387,327q35,0 56,26.5T465,423h48q-2-75-36-113t-88-38Z" />
      <glyph unicode="&#xa0;" glyph-name="uni00A0" horiz-adv-x="262" />
      <glyph unicode="&#xa1;" glyph-name="exclamdown" horiz-adv-x="260" d="M88-154l14,469h55l15-469H88Zm42,581q-22,0-37.5,15T77,478q0,22 15.5,37T130,530q23,0 37.5-15T182,478q0-21-14.5-36T130,427Z" />
      <glyph unicode="&#xa2;" glyph-name="cent" horiz-adv-x="563" d="M317-5Q239-5 177.5,29.5T81,124.5T46,263q0,79 35,139t96.5,94T317,530q67,0 121-26t85-78l-53-36q-27,40-67,59t-87,19q-56,0-101-25.5T144,371T118,263t26-108t71-71.5T316,58q47,0 87,19t67,58l53-36q-31-51-85-77.5T317-5ZM286-120V645h49V-120H286Z" />
      <glyph unicode="&#xa3;" glyph-name="sterling" horiz-adv-x="637" d="M143,13V459q0,75 31.5,130.5t94,86T421,706q61,0 110.5-12.5T621,653l-27-61q-36,26-81.5,37T415,640q-100,0-149.5-47T216,459V13H143ZM30,0V64H608V0H30Zm0,325v50H493V325H30Z" />
      <glyph unicode="&#xa4;" glyph-name="currency" horiz-adv-x="700" d="M350,52q-56,0-106,21t-87.5,57.5T97.5,215T76,318T97.5,421.5t59,85.5T244,565t106,21q57,0 107-21t88-58t59.5-85.5T626,318T604.5,215T545,130.5T457,73T350,52ZM75,0L34,45L151,162l42-45L75,0Zm76,473L34,590l41,45L193,518l-42-45ZM624,0L507,117l42,45L666,45L624,0ZM350,112q60,0 109,28t78.5,74.5T567,318T537.5,422T459,497.5T350,526q-59,0-108-28.5T164,422T135,318t29-103.5T242,140t108-28ZM549,473l-42,45L624,635l42-45L549,473Z" />
      <glyph unicode="&#xa5;" glyph-name="yen" horiz-adv-x="695" d="M311,0V304l17-49L1,700H79L370,306H327L618,700h76L367,255l17,49V0H311ZM91,130v44H604V130H91Zm0,138v44H604V268H91Z" />
      <glyph unicode="&#xa6;" glyph-name="brokenbar" horiz-adv-x="294" d="M114,392V742h66V392H114Zm0-586V156h66V-194H114Z" />
      <glyph unicode="&#xa7;" glyph-name="section" horiz-adv-x="490" d="M230-105q-38,0-77,8.5T81.5-73T28-39L52,16q31-26 79.5-44.5T232-47q63,0 99,24.5T367,49q0,32-18,50.5t-46.5,30t-63.5,20t-70.5,18t-64.5,26T57,238T39,310q0,54 32.5,90.5T152,452l50-37q-42-7-71-33t-29-69q0-33 18-52.5T167,229t64.5-20T302,191t64.5-26.5t47-44T431,50q0-47-25-82T336-86T230-105ZM340,147l-52,38q44,7 73.5,33T391,288q0,32-18,52t-47,31.5t-64.5,20t-70,18.5t-64,26T80,479T62,549q0,48 26,83t74.5,54T279,705q31,0 65-6t64.5-17.5T459,654l-24-54q-34,24-75.5,35.5T274,647q-72,0-110-24t-38-72q0-31 18-49.5T191,472t64-20t70-19t64-27t47-45t18-73q0-51-32.5-88.5T340,147Z" />
      <glyph unicode="&#xa8;" glyph-name="dieresis" horiz-adv-x="600" d="M389,630q-17,0-30,12t-13,31t13,31t30,12q18,0 30.5-12T432,673t-12.5-31T389,630Zm-178,0q-18,0-30.5,12T168,673t12.5,31T211,716q17,0 30-12t13-31t-13-31t-30-12Z" />
      <glyph unicode="&#xa9;" glyph-name="copyright" horiz-adv-x="809" d="M404-3Q329-3 265,24T153,99.5T78.5,212T52,350T79,488t75,112.5T266.5,676T406,703t139.5-26.5t112-74.5t74-111.5T758,352T731,212.5t-75.5-113T543,24T404-3Zm-1,37q68,0 125,24.5T628.5,126T696,227.5T720,352q0,67-23.5,124t-66,100t-100,66.5T406,666q-68,0-126-24T179.5,574.5T113,474T89,350q0-66 24-123.5t66.5-101T279.5,58T403,34Zm10,108q-60,0-107,26.5T232,242T205,350t27,108t74,73.5T413,558q51,0 92.5-20.5T572,481l-43-32q-21,29-51,43t-66,14q-43,0-76.5-19.5T282,432t-20-82t20-82t53.5-54.5T412,194q36,0 66,14t51,43l43-31q-25-37-66.5-57.5T413,142Z" />
      <glyph unicode="&#xaa;" glyph-name="ordfeminine" horiz-adv-x="401" d="M281,430v68l-4,11V624q0,41-23,60.5T185,704q-33,0-62.5-9.5T72,667L51,702q25,20 62.5,32T190,746q68,0 104-30.5T330,622V430H281Zm-117-3q-60,0-91.5,26T41,518q0,38 30,64t101,26H287V573H178q-47,0-67-14.5T91,521q0-27 22-42t62-15q39,0 64,15t38,43l10-32q-11-28-42.5-45.5T164,427Z" />
      <glyph unicode="&#xab;" glyph-name="guillemotleft" horiz-adv-x="477" d="M195,74L50,263L195,452h66L119,263L261,74H195Zm178,0L228,263L373,452h66L297,263L439,74H373Z" />
      <glyph unicode="&#xac;" glyph-name="logicalnot" horiz-adv-x="575" d="M442,141V321H70v59H505V141H442Z" />
      <glyph unicode="&#xae;" glyph-name="registered" horiz-adv-x="809" d="M404-3Q329-3 265,24T153,99.5T78.5,212T52,350T79,488t75,112.5T266.5,676T406,703t139.5-26.5t112-74.5t74-111.5T758,352T731,212.5t-75.5-113T543,24T404-3ZM533,148L432,304h54L587,148H533ZM403,34q68,0 125,24.5T628.5,126T696,227.5T720,352q0,67-23.5,124t-66,100t-100,66.5T406,666q-68,0-126-24T179.5,574.5T113,474T89,350q0-66 24-123.5t66.5-101T279.5,58T403,34ZM267,148V552H423q75,0 117.5-36.5T583,418q0-64-42.5-100T423,282H319V148H267Zm51,178H420q53,0 82.5,24T532,418q0,43-29.5,66.5T420,508H318V326Z" />
      <glyph unicode="&#xaf;" glyph-name="macron" horiz-adv-x="600" d="M146,645v47H454V645H146Z" />
      <glyph unicode="&#xb0;" glyph-name="degree" horiz-adv-x="419" d="M209,388q-44,0-80.5,21.5T71,466.5T50,547q0,44 21,80t57.5,57T209,705q45,0 81.5-21T348,627t21-80t-21-80t-57.5-57.5T209,388Zm1,42q32,0 58.5,16T310,488t15,59t-15,59.5T268.5,648T210,663q-33,0-59.5-15T109,606.5T94,547t15-59.5t41.5-42T210,430Z" />
      <glyph unicode="&#xb1;" glyph-name="plusminus" horiz-adv-x="575" d="M256,173V591h63V173H256ZM70,0V59H505V0H70Zm0,352v60H505V352H70Z" />
      <glyph unicode="&#xb2;" glyph-name="uni00B2" horiz-adv-x="430" d="M48,327v35L238,530q39,35 51.5,56.5T302,629q0,29-26,50t-85,21q-38,0-70-11.5T69,654L32,683q26,31 67,47t95,16q81,0 121.5-33T356,632q0-31-15.5-59T278,503L107,352L90,372H376V327H48Z" />
      <glyph unicode="&#xb3;" glyph-name="uni00B3" horiz-adv-x="430" d="M202,323q-55,0-101,14.5T31,376l23,40q23-20 62-33.5T202,369q61,0 90,21.5T321,447q0,36-28.5,57T204,525H162v37L305,717l8-20H42v45H355V707L213,551l-23,15h23q79,0 120.5-33T375,447q0-34-19.5-62.5t-58-45T202,323Z" />
      <glyph unicode="&#xb4;" glyph-name="acute" horiz-adv-x="600" d="M235,607L372,731h95L305,607H235Z" />
      <glyph unicode="&#xb5;" glyph-name="uni00B5" horiz-adv-x="678" d="M99-194V525h71V228q0-84 41.5-126.5T329,59q55,0 95,22.5T486,147t22,103V525h71V0H511V146l12-19q-15-45-44.5-74.5T411,9T330-5Q268-5 223.5,20.5T156,95l14,32V-194H99Z" />
      <glyph unicode="&#xb6;" glyph-name="paragraph" horiz-adv-x="632" d="M226-100V395q-60,1-106.5,22.5T47,478T21,569q0,54 26.5,92.5t75,59.5T236,742H518V-100H458V686H286V-100H226Z" />
      <glyph unicode="&#xb7;" glyph-name="periodcentered" horiz-adv-x="252" d="M126,216q-22,0-37.5,16T73,271q0,24 15.5,39.5T126,326q23,0 38-15.5T179,271q0-23-15-39t-38-16Z" />
      <glyph unicode="&#xb8;" glyph-name="cedilla" horiz-adv-x="600" d="M278-220q-25,0-45.5,6T194-197l17,38q15-9 31.5-14t34.5-5q30,0 46,12.5T339-131q0,20-15.5,33T277-85H254L278,6h43L306-52q41-3 63-25.5T391-133q0-40-31.5-63.5T278-220Z" />
      <glyph unicode="&#xb9;" glyph-name="uni00B9" horiz-adv-x="430" d="M84,327v45H238l-33-34V722l24-25H91v45H260V338l-33,34H368V327H84Z" />
      <glyph unicode="&#xba;" glyph-name="ordmasculine" horiz-adv-x="414" d="M207,427q-50,0-89,20.5t-61.5,57T34,587q0,47 22.5,82.5t61.5,56T207,746t89-20.5t61.5-56T380,587q0-46-22.5-82.5t-61.5-57T207,427Zm0,45q53,0 87,32t34,83q0,52-34,83.5T207,702t-87-32T86,587t34-83t87-32Z" />
      <glyph unicode="&#xbb;" glyph-name="guillemotright" horiz-adv-x="477" d="M38,74L180,263L38,452h66L249,263L104,74H38Zm178,0L358,263L216,452h66L427,263L282,74H216Z" />
      <glyph unicode="&#xbc;" glyph-name="onequarter" horiz-adv-x="1029" d="M84,285v45H238l-33-34V680l24-25H91v45H260V296l-33,34H368V285H84ZM246,0L724,700h59L305,0H246ZM626,106v36L832,415h60L685,142l-27,8H999V106H626ZM859,0V106l4,44v91h48V0H859Z" />
      <glyph unicode="&#xbd;" glyph-name="onehalf" horiz-adv-x="1029" d="M84,285v45H238l-33-34V680l24-25H91v45H260V296l-33,34H368V285H84ZM246,0L724,700h59L305,0H246ZM647,0V35L837,203q39,35 51.5,56.5T901,302q0,29-26,50t-85,21q-38,0-70-11.5T668,327l-37,29q26,31 67,47t95,16q81,0 121.5-33T955,305q0-31-15.5-59T877,176L706,25L689,45H975V0H647Z" />
      <glyph unicode="&#xbe;" glyph-name="threequarters" horiz-adv-x="1029" d="M202,281q-55,0-101,14.5T31,334l23,40q23-20 62-33.5T202,327q61,0 90,21.5T321,405q0,36-28.5,57T204,483H162v37L305,675l8-20H42v45H355V665L213,509l-23,15h23q79,0 120.5-33T375,405q0-34-19.5-62.5t-58-45T202,281ZM246,0L724,700h59L305,0H246ZM626,106v36L832,415h60L685,142l-27,8H999V106H626ZM859,0V106l4,44v91h48V0H859Z" />
      <glyph unicode="&#xbf;" glyph-name="questiondown" horiz-adv-x="567" d="M305-160q-70,0-121.5,21t-80,59T75,8q0,41 13.5,70.5T123,130t43.5,41.5t44,39.5T245,256t13,59h74q0-39-13.5-67.5t-34-51t-44-42t-44-39.5t-34-44T149,16q0-47 42-80T310-97q64,0 111,20.5T501-16l53-40q-40-49-102.5-76.5T305-160ZM295,427q-22,0-37,15t-15,36q0,22 15,37t37,15t37-15t15-37q0-21-15-36t-37-15Z" />
      <glyph unicode="&#xc0;" glyph-name="Agrave" horiz-adv-x="717" d="M2,0L322,700h73L715,0H637L343,657h30L79,0H2ZM128,187l22,60H557l22-60H128ZM354,757L192,881h95L424,757H354Z" />
      <glyph unicode="&#xc1;" glyph-name="Aacute" horiz-adv-x="717" d="M2,0L322,700h73L715,0H637L343,657h30L79,0H2ZM128,187l22,60H557l22-60H128ZM294,757L431,881h95L364,757H294Z" />
      <glyph unicode="&#xc2;" glyph-name="Acircumflex" horiz-adv-x="717" d="M2,0L322,700h73L715,0H637L343,657h30L79,0H2ZM128,187l22,60H557l22-60H128Zm66,570L323,881h72L524,757H458L331,863h56L260,757H194Z" />
      <glyph unicode="&#xc3;" glyph-name="Atilde" horiz-adv-x="717" d="M2,0L322,700h73L715,0H637L343,657h30L79,0H2ZM128,187l22,60H557l22-60H128ZM434,760q-26,0-45.5,11t-35,24.5T322,820t-35,11q-23,0-36.5-19T235,764H189q1,49 26,82.5T284,880q26,0 45.5-11T365,844.5T396.5,820T431,809q23,0 37,19.5T483,874h45q-1-49-25.5-81.5T434,760Z" />
      <glyph unicode="&#xc4;" glyph-name="Adieresis" horiz-adv-x="717" d="M2,0L322,700h73L715,0H637L343,657h30L79,0H2ZM128,187l22,60H557l22-60H128ZM448,780q-17,0-30,12t-13,31t13,31t30,12q18,0 30.5-12T491,823t-12.5-31T448,780Zm-178,0q-18,0-30.5,12T227,823t12.5,31T270,866q17,0 30-12t13-31t-13-31t-30-12Z" />
      <glyph unicode="&#xc5;" glyph-name="Aring" horiz-adv-x="717" d="M2,0L322,700h73L715,0H637L343,657h30L79,0H2ZM128,187l22,60H557l22-60H128ZM358,745q-30,0-53.5,14t-37,37T254,847t14,52t37.5,38.5T358,952q30,0 53.5-14.5T449,899t14-52t-14-51t-37.5-37T358,745Zm0,35q30,0 49,19.5T426,847q0,29-19,49.5T358,917q-29,0-48-20t-19-50q0-29 18.5-48T358,780Z" />
      <glyph unicode="&#xc6;" glyph-name="AE" horiz-adv-x="1033" d="M2,0L429,700h73V636H436l46,30L79,0H2ZM169,187l8,60H502V187H169ZM478,0V700H958V636H552V64H973V0H478Zm66,324v63H915V324H544Z" />
      <glyph unicode="&#xc7;" glyph-name="Ccedilla" horiz-adv-x="709" d="M418-6Q339-6 272,20.5T156,95T79.5,208T52,350T79.5,492t77,113T273,679.5T419,706q76,0 143-25.5T675,604l-47-47q-43,44-95,63.5T421,640q-63,0-117-21.5t-94-61t-62.5-92T125,350t22.5-115.5t62.5-92t94-61T421,60q60,0 112,20t95,64l47-47Q629,46 562,20T418-6ZM390-220q-25,0-45.5,6T306-197l17,38q15-9 31.5-14t34.5-5q30,0 46,12.5T451-131q0,20-15.5,33T389-85H366L390,6h43L418-52q41-3 63-25.5T503-133q0-40-31.5-63.5T390-220Z" />
      <glyph unicode="&#xc8;" glyph-name="Egrave" horiz-adv-x="669" d="M114,0V700H594V636H188V64H609V0H114Zm66,324v63H550V324H180ZM349,757L187,881h95L419,757H349Z" />
      <glyph unicode="&#xc9;" glyph-name="Eacute" horiz-adv-x="669" d="M114,0V700H594V636H188V64H609V0H114Zm66,324v63H550V324H180ZM289,757L426,881h95L359,757H289Z" />
      <glyph unicode="&#xca;" glyph-name="Ecircumflex" horiz-adv-x="669" d="M114,0V700H594V636H188V64H609V0H114Zm66,324v63H550V324H180Zm9,433L318,881h72L519,757H453L326,863h56L255,757H189Z" />
      <glyph unicode="&#xcb;" glyph-name="Edieresis" horiz-adv-x="669" d="M114,0V700H594V636H188V64H609V0H114Zm66,324v63H550V324H180ZM443,780q-17,0-30,12t-13,31t13,31t30,12q18,0 30.5-12T486,823t-12.5-31T443,780Zm-178,0q-18,0-30.5,12T222,823t12.5,31T265,866q17,0 30-12t13-31t-13-31t-30-12Z" />
      <glyph unicode="&#xcc;" glyph-name="Igrave" horiz-adv-x="302" d="M114,0V700h74V0H114Zm32,757L-16,881H79L216,757H146Z" />
      <glyph unicode="&#xcd;" glyph-name="Iacute" horiz-adv-x="302" d="M114,0V700h74V0H114ZM86,757L223,881h95L156,757H86Z" />
      <glyph unicode="&#xce;" glyph-name="Icircumflex" horiz-adv-x="302" d="M114,0V700h74V0H114ZM-14,757L115,881h72L316,757H250L123,863h56L52,757H-14Z" />
      <glyph unicode="&#xcf;" glyph-name="Idieresis" horiz-adv-x="302" d="M114,0V700h74V0H114ZM240,780q-17,0-30,12t-13,31t13,31t30,12q18,0 30.5-12T283,823t-12.5-31T240,780ZM62,780q-18,0-30.5,12T19,823t12.5,31T62,866q17,0 30-12t13-31T92,792T62,780Z" />
      <glyph unicode="&#xd0;" glyph-name="Eth" horiz-adv-x="831" d="M119,0V700H404q112,0 196.5-44.5T732,532t47-182T732,168T600.5,44.5T404,0H119Zm74,64H400q93,0 161.5,36.5T668,201.5T706,350q0,85-38,149T561.5,599.5T400,636H193V64ZM13,328v59H401V328H13Z" />
      <glyph unicode="&#xd1;" glyph-name="Ntilde" horiz-adv-x="813" d="M114,0V700h61L658,92H626V700h73V0H638L156,608h32V0H114ZM481,760q-26,0-45.5,11t-35,24.5T369,820t-35,11q-23,0-36.5-19T282,764H236q1,49 26,82.5T331,880q26,0 45.5-11T412,844.5T443.5,820T478,809q23,0 37,19.5T530,874h45q-1-49-25.5-81.5T481,760Z" />
      <glyph unicode="&#xd2;" glyph-name="Ograve" horiz-adv-x="839" d="M420-6Q341-6 273.5,20.5t-117,75t-77,113T52,350T79.5,491.5t77,113t116.5,75T420,706q79,0 146-26.5T682.5,605t77-113T787,350T759.5,208t-77-113T566,20.5T420-6Zm0,66q63,0 116.5,21.5t93,61t61.5,92T713,350T691,465.5t-61.5,92t-93,61T420,640T303,618.5t-93.5-61t-62-92T125,350q0-62 22.5-115t62-92.5t93.5-61T420,60Zm-5,697L253,881h95L485,757H415Z" />
      <glyph unicode="&#xd3;" glyph-name="Oacute" horiz-adv-x="839" d="M420-6Q341-6 273.5,20.5t-117,75t-77,113T52,350T79.5,491.5t77,113t116.5,75T420,706q79,0 146-26.5T682.5,605t77-113T787,350T759.5,208t-77-113T566,20.5T420-6Zm0,66q63,0 116.5,21.5t93,61t61.5,92T713,350T691,465.5t-61.5,92t-93,61T420,640T303,618.5t-93.5-61t-62-92T125,350q0-62 22.5-115t62-92.5t93.5-61T420,60ZM355,757L492,881h95L425,757H355Z" />
      <glyph unicode="&#xd4;" glyph-name="Ocircumflex" horiz-adv-x="839" d="M420-6Q341-6 273.5,20.5t-117,75t-77,113T52,350T79.5,491.5t77,113t116.5,75T420,706q79,0 146-26.5T682.5,605t77-113T787,350T759.5,208t-77-113T566,20.5T420-6Zm0,66q63,0 116.5,21.5t93,61t61.5,92T713,350T691,465.5t-61.5,92t-93,61T420,640T303,618.5t-93.5-61t-62-92T125,350q0-62 22.5-115t62-92.5t93.5-61T420,60ZM255,757L384,881h72L585,757H519L392,863h56L321,757H255Z" />
      <glyph unicode="&#xd5;" glyph-name="Otilde" horiz-adv-x="839" d="M420-6Q341-6 273.5,20.5t-117,75t-77,113T52,350T79.5,491.5t77,113t116.5,75T420,706q79,0 146-26.5T682.5,605t77-113T787,350T759.5,208t-77-113T566,20.5T420-6Zm0,66q63,0 116.5,21.5t93,61t61.5,92T713,350T691,465.5t-61.5,92t-93,61T420,640T303,618.5t-93.5-61t-62-92T125,350q0-62 22.5-115t62-92.5t93.5-61T420,60Zm75,700q-26,0-45.5,11t-35,24.5T383,820t-35,11q-23,0-36.5-19T296,764H250q1,49 26,82.5T345,880q26,0 45.5-11T426,844.5T457.5,820T492,809q23,0 37,19.5T544,874h45q-1-49-25.5-81.5T495,760Z" />
      <glyph unicode="&#xd6;" glyph-name="Odieresis" horiz-adv-x="839" d="M420-6Q341-6 273.5,20.5t-117,75t-77,113T52,350T79.5,491.5t77,113t116.5,75T420,706q79,0 146-26.5T682.5,605t77-113T787,350T759.5,208t-77-113T566,20.5T420-6Zm0,66q63,0 116.5,21.5t93,61t61.5,92T713,350T691,465.5t-61.5,92t-93,61T420,640T303,618.5t-93.5-61t-62-92T125,350q0-62 22.5-115t62-92.5t93.5-61T420,60Zm89,720q-17,0-30,12t-13,31t13,31t30,12q18,0 30.5-12T552,823t-12.5-31T509,780Zm-178,0q-18,0-30.5,12T288,823t12.5,31T331,866q17,0 30-12t13-31t-13-31t-30-12Z" />
      <glyph unicode="&#xd7;" glyph-name="multiply" horiz-adv-x="575" d="M421,174l40,43L154,526l-40-43L421,174Zm-267,0L461,483l-40,43L114,217l40-43Z" />
      <glyph unicode="&#xd8;" glyph-name="Oslash" horiz-adv-x="839" d="M420-6Q341-6 273.5,20.5t-117,75t-77,113T52,350T79.5,491.5t77,113t116.5,75T420,706q79,0 146-26.5T682.5,605t77-113T787,350T759.5,208t-77-113T566,20.5T420-6Zm0,66q63,0 116.5,21.5t93,61t61.5,92T713,350T691,465.5t-61.5,92t-93,61T420,640T303,618.5t-93.5-61t-62-92T125,350q0-62 22.5-115t62-92.5t93.5-61T420,60ZM155-70L621,770h65L220-70H155Z" />
      <glyph unicode="&#xd9;" glyph-name="Ugrave" horiz-adv-x="792" d="M396-6Q262-6 185,71T108,299V700h74V302q0-124 56-183T396,60q103,0 159,59t56,183V700h72V299q0-151-76.5-228T396-6Zm-5,763L229,881h95L461,757H391Z" />
      <glyph unicode="&#xda;" glyph-name="Uacute" horiz-adv-x="792" d="M396-6Q262-6 185,71T108,299V700h74V302q0-124 56-183T396,60q103,0 159,59t56,183V700h72V299q0-151-76.5-228T396-6ZM331,757L468,881h95L401,757H331Z" />
      <glyph unicode="&#xdb;" glyph-name="Ucircumflex" horiz-adv-x="792" d="M396-6Q262-6 185,71T108,299V700h74V302q0-124 56-183T396,60q103,0 159,59t56,183V700h72V299q0-151-76.5-228T396-6ZM231,757L360,881h72L561,757H495L368,863h56L297,757H231Z" />
      <glyph unicode="&#xdc;" glyph-name="Udieresis" horiz-adv-x="792" d="M396-6Q262-6 185,71T108,299V700h74V302q0-124 56-183T396,60q103,0 159,59t56,183V700h72V299q0-151-76.5-228T396-6Zm89,786q-17,0-30,12t-13,31t13,31t30,12q18,0 30.5-12T528,823t-12.5-31T485,780Zm-178,0q-18,0-30.5,12T264,823t12.5,31T307,866q17,0 30-12t13-31t-13-31t-30-12Z" />
      <glyph unicode="&#xdd;" glyph-name="Yacute" horiz-adv-x="635" d="M281,0V260l17-46L1,700H80L341,273H299L560,700h74L337,214l17,46V0H281ZM252,757L389,881h95L322,757H252Z" />
      <glyph unicode="&#xde;" glyph-name="Thorn" horiz-adv-x="718" d="M169,129v65H374q105,0 159.5,46T588,370q0,83-54.5,129T374,545H169v64H376q89,0 153-29t98.5-82T662,370T627.5,241T529,158T376,129H169ZM114,0V700h74V0H114Z" />
      <glyph unicode="&#xdf;" glyph-name="germandbls" horiz-adv-x="668" d="M385-5q-29,0-59,4T272,11l13,60q21-7 44-10.5T382,57q50,0 87.5,17t59,49.5T550,201q0,68-48.5,105T375,343H317v61q83,1 130,41t47,108q0,59-40.5,95.5T340,685q-78,0-124-45.5T170,504V0H99V498q0,83 31,138t85.5,83T340,747q69,0 119-25t77-68t27-98q0-45-17-80.5t-45-60T438.5,378T370,365l28,30q64,0 114.5-23t80-66.5T622,199q0-64-31-109.5t-84.5-70T385-5Z" />
      <glyph unicode="&#xe0;" glyph-name="agrave" horiz-adv-x="590" d="M428,0V116l-3,19V329q0,67-37.5,103T276,468q-51,0-97-17t-78-45L69,459q40,34 96,52.5T283,530q102,0 157.5-50.5T496,326V0H428ZM247-5Q188-5 144.5,14.5T78,68.5T55,148q0,41 19.5,74.5t64,54T258,297H439V244H260q-76,0-105.5-27T125,150q0-45 35-72t98-27q60,0 103.5,27.5T425,158l16-49q-20-52-69.5-83T247-5Zm33,612L118,731h95L350,607H280Z" />
      <glyph unicode="&#xe1;" glyph-name="aacute" horiz-adv-x="590" d="M428,0V116l-3,19V329q0,67-37.5,103T276,468q-51,0-97-17t-78-45L69,459q40,34 96,52.5T283,530q102,0 157.5-50.5T496,326V0H428ZM247-5Q188-5 144.5,14.5T78,68.5T55,148q0,41 19.5,74.5t64,54T258,297H439V244H260q-76,0-105.5-27T125,150q0-45 35-72t98-27q60,0 103.5,27.5T425,158l16-49q-20-52-69.5-83T247-5ZM220,607L357,731h95L290,607H220Z" />
      <glyph unicode="&#xe2;" glyph-name="acircumflex" horiz-adv-x="590" d="M428,0V116l-3,19V329q0,67-37.5,103T276,468q-51,0-97-17t-78-45L69,459q40,34 96,52.5T283,530q102,0 157.5-50.5T496,326V0H428ZM247-5Q188-5 144.5,14.5T78,68.5T55,148q0,41 19.5,74.5t64,54T258,297H439V244H260q-76,0-105.5-27T125,150q0-45 35-72t98-27q60,0 103.5,27.5T425,158l16-49q-20-52-69.5-83T247-5ZM120,607L249,731h72L450,607H384L257,713h56L186,607H120Z" />
      <glyph unicode="&#xe3;" glyph-name="atilde" horiz-adv-x="590" d="M428,0V116l-3,19V329q0,67-37.5,103T276,468q-51,0-97-17t-78-45L69,459q40,34 96,52.5T283,530q102,0 157.5-50.5T496,326V0H428ZM247-5Q188-5 144.5,14.5T78,68.5T55,148q0,41 19.5,74.5t64,54T258,297H439V244H260q-76,0-105.5-27T125,150q0-45 35-72t98-27q60,0 103.5,27.5T425,158l16-49q-20-52-69.5-83T247-5ZM353,613q-23,0-41,10t-32.5,23.5t-28.5,24T222,681q-23,0-36.5-17T170,617H127q2,50 26.5,80T217,727q23,0 41.5-10.5t33-24t28-23.5T348,659q23,0 37,16.5T400,721h43q-1-48-26-78t-64-30Z" />
      <glyph unicode="&#xe4;" glyph-name="adieresis" horiz-adv-x="590" d="M428,0V116l-3,19V329q0,67-37.5,103T276,468q-51,0-97-17t-78-45L69,459q40,34 96,52.5T283,530q102,0 157.5-50.5T496,326V0H428ZM247-5Q188-5 144.5,14.5T78,68.5T55,148q0,41 19.5,74.5t64,54T258,297H439V244H260q-76,0-105.5-27T125,150q0-45 35-72t98-27q60,0 103.5,27.5T425,158l16-49q-20-52-69.5-83T247-5ZM374,630q-17,0-30,12t-13,31t13,31t30,12q18,0 30.5-12T417,673t-12.5-31T374,630Zm-178,0q-18,0-30.5,12T153,673t12.5,31T196,716q17,0 30-12t13-31t-13-31t-30-12Z" />
      <glyph unicode="&#xe5;" glyph-name="aring" horiz-adv-x="590" d="M428,0V116l-3,19V329q0,67-37.5,103T276,468q-51,0-97-17t-78-45L69,459q40,34 96,52.5T283,530q102,0 157.5-50.5T496,326V0H428ZM247-5Q188-5 144.5,14.5T78,68.5T55,148q0,41 19.5,74.5t64,54T258,297H439V244H260q-76,0-105.5-27T125,150q0-45 35-72t98-27q60,0 103.5,27.5T425,158l16-49q-20-52-69.5-83T247-5Zm37,600q-30,0-53.5,14t-37,37T180,697t14,52t37.5,38.5T284,802q30,0 53.5-14.5T375,749t14-52t-14-51t-37.5-37T284,595Zm0,35q30,0 49,19.5T352,697q0,29-19,49.5T284,767q-29,0-48-20t-19-50q0-29 18.5-48T284,630Z" />
      <glyph unicode="&#xe6;" glyph-name="ae" horiz-adv-x="986" d="M254-5Q160-5 107.5,38T55,150q0,39 19.5,72t64,53.5T258,296H437V243H260q-76,0-105.5-26.5T125,151q0-46 35.5-73T259,51q76,0 121,40t45,110V329q0,67-37.5,103T276,468q-51,0-97-17t-78-45L69,459q40,34 96,52.5T282,530q90,0 141.5-38T487,378l-32,6q30,67 90,106.5T684,530q55,0 101.5-19.5t81-54.5t54-83T940,267q0-7-0.5-12.5T938,243H482v53H900l-29-23q0,61-25.5,104.5T777,445t-94,24q-50,0-93-24t-68.5-68T496,271V260q0-60 26.5-105.5t73-71T704,58q49,0 89.5,17T865,127l40-46q-35-43-87.5-64.5T702-5Q642-5 589.5,15T498,76T438,179l46-1q-10-68-44.5-108T356,12.5T254-5Z" />
      <glyph unicode="&#xe7;" glyph-name="ccedilla" horiz-adv-x="563" d="M317-5Q239-5 177.5,29.5T81,124.5T46,263q0,79 35,139t96.5,94T317,530q67,0 121-26t85-78l-53-36q-27,40-67,59t-87,19q-56,0-101-25.5T144,371T118,263t26-108t71-71.5T316,58q47,0 87,19t67,58l53-36q-31-51-85-77.5T317-5ZM281-220q-25,0-45.5,6T197-197l17,38q15-9 31.5-14t34.5-5q30,0 46,12.5T342-131q0,20-15.5,33T280-85H257L281,6h43L309-52q41-3 63-25.5T394-133q0-40-31.5-63.5T281-220Z" />
      <glyph unicode="&#xe8;" glyph-name="egrave" horiz-adv-x="604" d="M322-5Q240-5 178,29.5t-97,95T46,263T79.5,401t92,94.5T303,530q74,0 131.5-33.5t90.5-94T558,263q0-5-0.5-10.5T557,241H100v53H519l-28-21q0,57-24.5,101.5T400,444t-97,25q-54,0-97-25t-67-70T115,271V260q0-60 26.5-105.5t74-71T324,58q48,0 89.5,17T485,127l40-46q-35-42-87.5-64T322-5ZM297,607L135,731h95L367,607H297Z" />
      <glyph unicode="&#xe9;" glyph-name="eacute" horiz-adv-x="604" d="M322-5Q240-5 178,29.5t-97,95T46,263T79.5,401t92,94.5T303,530q74,0 131.5-33.5t90.5-94T558,263q0-5-0.5-10.5T557,241H100v53H519l-28-21q0,57-24.5,101.5T400,444t-97,25q-54,0-97-25t-67-70T115,271V260q0-60 26.5-105.5t74-71T324,58q48,0 89.5,17T485,127l40-46q-35-42-87.5-64T322-5ZM237,607L374,731h95L307,607H237Z" />
      <glyph unicode="&#xea;" glyph-name="ecircumflex" horiz-adv-x="604" d="M322-5Q240-5 178,29.5t-97,95T46,263T79.5,401t92,94.5T303,530q74,0 131.5-33.5t90.5-94T558,263q0-5-0.5-10.5T557,241H100v53H519l-28-21q0,57-24.5,101.5T400,444t-97,25q-54,0-97-25t-67-70T115,271V260q0-60 26.5-105.5t74-71T324,58q48,0 89.5,17T485,127l40-46q-35-42-87.5-64T322-5ZM137,607L266,731h72L467,607H401L274,713h56L203,607H137Z" />
      <glyph unicode="&#xeb;" glyph-name="edieresis" horiz-adv-x="604" d="M322-5Q240-5 178,29.5t-97,95T46,263T79.5,401t92,94.5T303,530q74,0 131.5-33.5t90.5-94T558,263q0-5-0.5-10.5T557,241H100v53H519l-28-21q0,57-24.5,101.5T400,444t-97,25q-54,0-97-25t-67-70T115,271V260q0-60 26.5-105.5t74-71T324,58q48,0 89.5,17T485,127l40-46q-35-42-87.5-64T322-5Zm69,635q-17,0-30,12t-13,31t13,31t30,12q18,0 30.5-12T434,673t-12.5-31T391,630Zm-178,0q-18,0-30.5,12T170,673t12.5,31T213,716q17,0 30-12t13-31t-13-31t-30-12Z" />
      <glyph unicode="&#xec;" glyph-name="igrave" horiz-adv-x="269" d="M99,0V525h71V0H99Zm31,607L-32,731H63L200,607H130Z" />
      <glyph unicode="&#xed;" glyph-name="iacute" horiz-adv-x="269" d="M99,0V525h71V0H99ZM70,607L207,731h95L140,607H70Z" />
      <glyph unicode="&#xee;" glyph-name="icircumflex" horiz-adv-x="269" d="M99,0V525h71V0H99ZM-5,607L100,731h70L275,607H211L111,713h48L59,607H-5Z" />
      <glyph unicode="&#xef;" glyph-name="idieresis" horiz-adv-x="269" d="M99,0V525h71V0H99ZM201,630q-17,0-29,12.5T160,673q0,17 12,29.5T201,715q18,0 30-12t12-30t-12-30.5T201,630ZM69,630q-18,0-30,12.5T27,673q0,17 12,29.5T69,715t29.5-12T110,673T98.5,642.5T69,630Z" />
      <glyph unicode="&#xf0;" glyph-name="eth" horiz-adv-x="590" d="M282-3Q211-3 158,25T75.5,104T46,223q0,67 28,115.5T153,414t120,27q63,0 115-27.5T464,339q-16,73-62.5,142t-115,128T137,708l49,37q107-55 186.5-135t123-173.5T539,247q0-76-32-132T417.5,28T282-3Zm6,60q79,0 126,44t47,117q0,75-47,120.5T288,384q-77,0-124-43T117,224q0-76 47-121.5T288,57ZM140,504l-19,42L471,707l20-41L140,504Z" />
      <glyph unicode="&#xf1;" glyph-name="ntilde" horiz-adv-x="676" d="M99,0V525h68V381l-11,27q25,57 80,89.5T367,530q64,0 112.5-24.5t76-74.5T583,305V0H512V298q0,83-41.5,125.5T354,466q-56,0-97.5-22.5t-64-65T170,276V0H99ZM408,613q-23,0-41,10t-32.5,23.5t-28.5,24T277,681q-23,0-36.5-17T225,617H182q2,50 26.5,80T272,727q23,0 41.5-10.5t33-24t28-23.5T403,659q23,0 37,16.5T455,721h43q-1-48-26-78t-64-30Z" />
      <glyph unicode="&#xf2;" glyph-name="ograve" horiz-adv-x="627" d="M313-5Q237-5 176.5,29.5T81,124.5T46,263q0,79 35,139t95,94t137,34q78,0 138.5-34t95-94T581,263q0-78-34.5-138.5T451,29.5T313-5Zm0,63q57,0 101,25.5t69.5,72T509,263q0,62-25.5,108T414,442.5T314,468T214,442.5T144,371T118,263q0-61 26-107.5t70-72T313,58Zm-5,549L146,731h95L378,607H308Z" />
      <glyph unicode="&#xf3;" glyph-name="oacute" horiz-adv-x="627" d="M313-5Q237-5 176.5,29.5T81,124.5T46,263q0,79 35,139t95,94t137,34q78,0 138.5-34t95-94T581,263q0-78-34.5-138.5T451,29.5T313-5Zm0,63q57,0 101,25.5t69.5,72T509,263q0,62-25.5,108T414,442.5T314,468T214,442.5T144,371T118,263q0-61 26-107.5t70-72T313,58ZM248,607L385,731h95L318,607H248Z" />
      <glyph unicode="&#xf4;" glyph-name="ocircumflex" horiz-adv-x="627" d="M313-5Q237-5 176.5,29.5T81,124.5T46,263q0,79 35,139t95,94t137,34q78,0 138.5-34t95-94T581,263q0-78-34.5-138.5T451,29.5T313-5Zm0,63q57,0 101,25.5t69.5,72T509,263q0,62-25.5,108T414,442.5T314,468T214,442.5T144,371T118,263q0-61 26-107.5t70-72T313,58ZM148,607L277,731h72L478,607H412L285,713h56L214,607H148Z" />
      <glyph unicode="&#xf5;" glyph-name="otilde" horiz-adv-x="627" d="M313-5Q237-5 176.5,29.5T81,124.5T46,263q0,79 35,139t95,94t137,34q78,0 138.5-34t95-94T581,263q0-78-34.5-138.5T451,29.5T313-5Zm0,63q57,0 101,25.5t69.5,72T509,263q0,62-25.5,108T414,442.5T314,468T214,442.5T144,371T118,263q0-61 26-107.5t70-72T313,58Zm68,555q-23,0-41,10t-32.5,23.5t-28.5,24T250,681q-23,0-36.5-17T198,617H155q2,50 26.5,80T245,727q23,0 41.5-10.5t33-24t28-23.5T376,659q23,0 37,16.5T428,721h43q-1-48-26-78t-64-30Z" />
      <glyph unicode="&#xf6;" glyph-name="odieresis" horiz-adv-x="627" d="M313-5Q237-5 176.5,29.5T81,124.5T46,263q0,79 35,139t95,94t137,34q78,0 138.5-34t95-94T581,263q0-78-34.5-138.5T451,29.5T313-5Zm0,63q57,0 101,25.5t69.5,72T509,263q0,62-25.5,108T414,442.5T314,468T214,442.5T144,371T118,263q0-61 26-107.5t70-72T313,58Zm89,572q-17,0-30,12t-13,31t13,31t30,12q18,0 30.5-12T445,673t-12.5-31T402,630Zm-178,0q-18,0-30.5,12T181,673t12.5,31T224,716q17,0 30-12t13-31t-13-31t-30-12Z" />
      <glyph unicode="&#xf7;" glyph-name="divide" horiz-adv-x="575" d="M70,320v59H505V320H70ZM287,110q-19,0-33,14t-14,35t14,34.5T287,207q20,0 34-13.5T335,159t-14-35t-34-14Zm0,383q-19,0-33,14t-14,34q0,22 14,35.5T287,590q20,0 34-13.5T335,541q0-20-14-34t-34-14Z" />
      <glyph unicode="&#xf8;" glyph-name="oslash" horiz-adv-x="627" d="M313-5Q237-5 176.5,29.5T81,124.5T46,263q0,79 35,139t95,94t137,34q78,0 138.5-34t95-94T581,263q0-78-34.5-138.5T451,29.5T313-5Zm0,63q57,0 101,25.5t69.5,72T509,263q0,62-25.5,108T414,442.5T314,468T214,442.5T144,371T118,263q0-61 26-107.5t70-72T313,58ZM111-79L455,592h55L165-79H111Z" />
      <glyph unicode="&#xf9;" glyph-name="ugrave" horiz-adv-x="672" d="M316-5Q249-5 199,20T121.5,95T94,220V525h71V228q0-84 41.5-126.5T323,59q55,0 95.5,22.5t62,65.5T502,250V525h71V0H505V144l11-26q-25-58-77.5-90.5T316-5Zm13,612L167,731h95L399,607H329Z" />
      <glyph unicode="&#xfa;" glyph-name="uacute" horiz-adv-x="672" d="M316-5Q249-5 199,20T121.5,95T94,220V525h71V228q0-84 41.5-126.5T323,59q55,0 95.5,22.5t62,65.5T502,250V525h71V0H505V144l11-26q-25-58-77.5-90.5T316-5ZM269,607L406,731h95L339,607H269Z" />
      <glyph unicode="&#xfb;" glyph-name="ucircumflex" horiz-adv-x="672" d="M316-5Q249-5 199,20T121.5,95T94,220V525h71V228q0-84 41.5-126.5T323,59q55,0 95.5,22.5t62,65.5T502,250V525h71V0H505V144l11-26q-25-58-77.5-90.5T316-5ZM169,607L298,731h72L499,607H433L306,713h56L235,607H169Z" />
      <glyph unicode="&#xfc;" glyph-name="udieresis" horiz-adv-x="672" d="M316-5Q249-5 199,20T121.5,95T94,220V525h71V228q0-84 41.5-126.5T323,59q55,0 95.5,22.5t62,65.5T502,250V525h71V0H505V144l11-26q-25-58-77.5-90.5T316-5ZM423,630q-17,0-30,12t-13,31t13,31t30,12q18,0 30.5-12T466,673t-12.5-31T423,630Zm-178,0q-18,0-30.5,12T202,673t12.5,31T245,716q17,0 30-12t13-31t-13-31t-30-12Z" />
      <glyph unicode="&#xfd;" glyph-name="yacute" horiz-adv-x="542" d="M103-199q-37,0-70.5,12T-25-151L8-98q20-19 43.5-29.5T104-138q35,0 60.5,19.5T213-50l34,77l8,11L471,525h70L278-63q-22-51-48.5-81T172-186.5T103-199ZM243-15L1,525H75L289,43L243-15ZM192,607L329,731h95L262,607H192Z" />
      <glyph unicode="&#xfe;" glyph-name="thorn" horiz-adv-x="678" d="M370-5Q302-5 247,26.5t-87.5,91T127,263t32,145.5T246,499t124,31q75,0 134.5-33.5t93.5-94T632,263q0-80-34-140T504.5,29T370-5ZM99-194V742h71V367L160,262l10-106V-194H99ZM365,58q56,0 100,25.5t70,72T561,263T535,370t-70,72T365,468T264.5,442t-70-72T169,263t25.5-107.5t70-72T365,58Z" />
      <glyph unicode="&#xff;" glyph-name="ydieresis" horiz-adv-x="542" d="M103-199q-37,0-70.5,12T-25-151L8-98q20-19 43.5-29.5T104-138q35,0 60.5,19.5T213-50l34,77l8,11L471,525h70L278-63q-22-51-48.5-81T172-186.5T103-199ZM243-15L1,525H75L289,43L243-15ZM346,630q-17,0-30,12t-13,31t13,31t30,12q18,0 30.5-12T389,673t-12.5-31T346,630Zm-178,0q-18,0-30.5,12T125,673t12.5,31T168,716q17,0 30-12t13-31t-13-31t-30-12Z" />
      <glyph unicode="&#x2013;" glyph-name="endash" horiz-adv-x="500" d="M0,246v51H500V246H0Z" />
      <glyph unicode="&#x2014;" glyph-name="emdash" horiz-adv-x="1000" d="M0,246v51H1000V246H0Z" />
      <glyph unicode="&#x2018;" glyph-name="quoteleft" horiz-adv-x="212" d="M106,493q-24,0-38.5,15.5T53,547q0,9 1,16t4,17t8,24l42,138h48L112,557l-8,43q24,0 39-14.5T158,547t-15-39t-37-15Z" />
      <glyph unicode="&#x2019;" glyph-name="quoteright" horiz-adv-x="212" d="M56,498l44,184l8-42q-23,0-38.5,14.5T54,693t15.5,39T107,747q23,0 37.5-15.5T159,693q0-8-1-16t-3.5-17.5T147,636L104,498H56Z" />
      <glyph unicode="&#x201a;" glyph-name="quotesinglbase" horiz-adv-x="212" d="M56-146L100,39l8-43Q85-4 69.5,11T54,50T69.5,89T107,104q23,0 37.5-16T159,50q0-8-1-16t-4-18T146-8L104-146H56Z" />
      <glyph unicode="&#x201c;" glyph-name="quotedblleft" horiz-adv-x="382" d="M106,493q-24,0-38.5,15.5T53,547q0,9 1,16t4,17t8,24l42,138h48L112,557l-8,43q24,0 39-14.5T158,547t-15-39t-37-15Zm170,0q-24,0-38.5,15.5T223,547q0,9 1,16t4,17t8,24l42,138h48L282,557l-8,43q24,0 39-14.5T328,547t-15-39t-37-15Z" />
      <glyph unicode="&#x201d;" glyph-name="quotedblright" horiz-adv-x="382" d="M56,498l44,184l8-42q-23,0-38.5,14.5T54,693t15.5,39T107,747q23,0 37.5-15.5T159,693q0-8-1-16t-3.5-17.5T147,636L104,498H56Zm170,0l44,184l8-42q-23,0-38.5,14.5T224,693t15.5,39T277,747q23,0 37.5-15.5T329,693q0-8-1-16t-3.5-17.5T317,636L274,498H226Z" />
      <glyph unicode="&#x201e;" glyph-name="quotedblbase" horiz-adv-x="382" d="M56-146L100,39l8-43Q85-4 69.5,11T54,50T69.5,89T107,104q23,0 37.5-16T159,50q0-8-1-16t-4-18T146-8L104-146H56Zm170,0L270,39l8-43q-23,0-38.5,15T224,50t15.5,39T277,104q23,0 37.5-16T329,50q0-8-1-16t-4-18T316-8L274-146H226Z" />
      <glyph unicode="&#x2022;" glyph-name="bullet" horiz-adv-x="295" d="M148,197q-20,0-37.5,10T83,234T73,274q0,21 10,38t27.5,27T148,349t37-10t27.5-27T223,274q0-23-10.5-40T185,207t-37-10Z" />
      <glyph unicode="&#x2039;" glyph-name="guilsinglleft" horiz-adv-x="299" d="M195,74L50,263L195,452h66L119,263L261,74H195Z" />
      <glyph unicode="&#x203a;" glyph-name="guilsinglright" horiz-adv-x="299" d="M38,74L180,263L38,452h66L249,263L104,74H38Z" />
    </font>
</defs>
</svg>
